rejetto forum

Player should play instantly

0 Members and 1 Guest are viewing this topic.

Offline De-M-oN

  • Occasional poster
  • *
    • Posts: 16
    • View Profile
I have some MP4 video files on my root and as I wanted to test it, I noticed that the player has to have 100% of the file downloaded to be able to play the file.

That kills a little bit the sense of streaming :(

Can it not be like with youtube and other sites? So that the player does play directly and the video does download the rest while you watch the video?


Offline TSG

  • Moderator
  • Tireless poster
  • *****
    • Posts: 1934
    • View Profile
    • RAWR-Designs
It can stream, but it depends on the type of .MP4 and the metadata stored in the file. Not sure why it waits till the entire file is done though.

The simple answer is no, it can't be like YouTube (select anywhere on timeline). It must stream the old fashion way (download a bit, then play as it downloads) dynamic timeline is just not possible with HFS (not without ridiculous effort). But it shouldn't do what you described.


Offline De-M-oN

  • Occasional poster
  • *
    • Posts: 16
    • View Profile
Here the data of the video:

General
Complete name                    : C:\files\NFS4_TRN_03_08_10-part1.mp4
Format                           : MPEG-4
Format profile                   : Base Media
Codec ID                         : isom
File size                        : 916 MiB
Duration                         : 14mn 32s
Overall bit rate                 : 8 811 Kbps
Encoded date                     : UTC 2010-08-04 22:18:11
Tagged date                      : UTC 2010-08-04 22:18:11

Video
ID                               : 1
Format                           : AVC
Format/Info                      : Advanced Video Codec
Format profile                   : High@L3.1
Format settings, CABAC           : Yes
Format settings, ReFrames        : 5 frames
Codec ID                         : avc1
Codec ID/Info                    : Advanced Video Coding
Duration                         : 14mn 32s
Bit rate mode                    : Variable
Bit rate                         : 8 522 Kbps
Width                            : 1 280 pixels
Height                           : 720 pixels
Display aspect ratio             : 16:9
Frame rate mode                  : Constant
Frame rate                       : 30.000 fps
Standard                         : NTSC
Color space                      : YUV
Chroma subsampling               : 4:2:0
Bit depth                        : 8 bits
Scan type                        : Progressive
Bits/(Pixel*Frame)               : 0.308
Stream size                      : 887 MiB (97%)
Language                         : English
Encoded date                     : UTC 2010-08-04 22:18:11
Tagged date                      : UTC 2010-08-04 22:18:11
Color primaries                  : BT.709-5, BT.1361, IEC 61966-2-4, SMPTE RP177
Transfer characteristics         : BT.709-5, BT.1361
Matrix coefficients              : BT.709-5, BT.1361, IEC 61966-2-4 709, SMPTE RP177

Audio
ID                               : 2
Format                           : AAC
Format/Info                      : Advanced Audio Codec
Format version                   : Version 4
Format profile                   : Main
Codec ID                         : 40
Duration                         : 14mn 32s
Bit rate mode                    : Constant
Bit rate                         : 288 Kbps
Channel(s)                       : 2 channels
Channel positions                : Front: L R
Sampling rate                    : 44.1 KHz
Stream size                      : 29.6 MiB (3%)
Language                         : English
Encoded date                     : UTC 2010-08-04 22:18:11
Tagged date                      : UTC 2010-08-04 22:18:11


I could live without a dynamic timeline. I just like to have this:

Quote
download a bit, then play as it downloads

And thats not for me with this file. With this file it waits until 100%.


Offline TSG

  • Moderator
  • Tireless poster
  • *****
    • Posts: 1934
    • View Profile
    • RAWR-Designs
Nothing much I can do about it sorry. It is what it is.


Not exactly a very internet streaming friendly file:

File size: 916 MiB
Duration : 14mn 32s
Overall bit rate: 8,811 Kbps 


Offline rejetto

  • Administrator
  • Tireless poster
  • *****
    • Posts: 13304
    • View Profile

Offline De-M-oN

  • Occasional poster
  • *
    • Posts: 16
    • View Profile
Not exactly a very internet streaming friendly file:

File size: 916 MiB
Duration : 14mn 32s
Overall bit rate: 8,811 Kbps 
With a 32 Mbit connection its perfect streaming friendly  :D ;D
We have all fast internet.

Or do you mean it is too huge for that flash player?


try using VLC as player

That I dont understand?

You mean when I install that player I should open the Direct Play URL with VLC? Or what do you mean?


Offline rejetto

  • Administrator
  • Tireless poster
  • *****
    • Posts: 13304
    • View Profile
yes, that may be an option, or i heard it's possible to embed VLC in web pages, but you are supposed to have VLC installed on every computer


Offline TSG

  • Moderator
  • Tireless poster
  • *****
    • Posts: 1934
    • View Profile
    • RAWR-Designs
I think the file is asking too much of flash player yes.

Also, what rejetto said :) but it is a pain to setup. There is examples if you search the forum.


Offline De-M-oN

  • Occasional poster
  • *
    • Posts: 16
    • View Profile
Strange.

This MP4 played now directly:

General
Complete name                    : C:\files\LP-DooM2-Level25.mp4
Format                           : MPEG-4
Format profile                   : Base Media
Codec ID                         : isom
File size                        : 1.09 GiB
Duration                         : 12mn 52s
Overall bit rate                 : 12.2 Mbps
Encoded date                     : UTC 2010-11-17 20:42:56
Tagged date                      : UTC 2010-11-17 20:42:56

Video
ID                               : 1
Format                           : AVC
Format/Info                      : Advanced Video Codec
Format profile                   : High@L5.0
Format settings, CABAC           : Yes
Format settings, ReFrames        : 5 frames
Codec ID                         : avc1
Codec ID/Info                    : Advanced Video Coding
Duration                         : 12mn 52s
Bit rate mode                    : Variable
Bit rate                         : 12.0 Mbps
Maximum bit rate                 : 62.3 Mbps
Width                            : 1 920 pixels
Height                           : 1 080 pixels
Display aspect ratio             : 16:9
Frame rate mode                  : Constant
Frame rate                       : 30.000 fps
Color space                      : YUV
Chroma subsampling               : 4:2:0
Bit depth                        : 8 bits
Scan type                        : Progressive
Bits/(Pixel*Frame)               : 0.193
Stream size                      : 1.07 GiB (98%)
Writing library                  : x264 core 98 r1649 c54c47d
Encoding settings                : cabac=1 / ref=5 / deblock=1:2:2 / analyse=0x3:0x133 / me=hex / subme=6 / psy=1 / psy_rd=1.00:0.00 / mixed_ref=1 / me_range=16 / chroma_me=1 / trellis=1 / 8x8dct=1 / cqm=0 / deadzone=21,11 / fast_pskip=0 / chroma_qp_offset=-2 / threads=6 / sliced_threads=0 / nr=0 / decimate=1 / interlaced=0 / constrained_intra=0 / bframes=3 / b_pyramid=2 / b_adapt=1 / b_bias=0 / direct=3 / weightb=1 / weightp=2 / keyint=250 / keyint_min=25 / scenecut=64 / intra_refresh=0 / rc_lookahead=50 / rc=abr / mbtree=1 / bitrate=12000 / ratetol=1.0 / qcomp=0.60 / qpmin=10 / qpmax=51 / qpstep=4 / ip_ratio=1.40 / aq=1:1.00
Encoded date                     : UTC 2010-11-17 19:13:23
Tagged date                      : UTC 2010-11-17 20:43:37

Audio
ID                               : 2
Format                           : AAC
Format/Info                      : Advanced Audio Codec
Format version                   : Version 4
Format profile                   : LC
Format settings, SBR             : No
Codec ID                         : 40
Duration                         : 12mn 52s
Bit rate mode                    : Variable
Bit rate                         : 275 Kbps
Maximum bit rate                 : 320 Kbps
Channel(s)                       : 2 channels
Channel positions                : Front: L R
Sampling rate                    : 44.1 KHz
Stream size                      : 25.3 MiB (2%)
Encoded date                     : UTC 2010-11-17 20:43:36
Tagged date                      : UTC 2010-11-17 20:43:37